<?xml version="1.0" standalone="no"?>
<!DOCTYPE svg PUBLIC "-//W3C//DTD SVG 1.1//EN" "http://www.w3.org/Graphics/SVG/1.1/DTD/svg11.dtd" >
<svg xmlns="http://www.w3.org/2000/svg">
<metadata>Generated by IcoMoon</metadata>
<defs>
<font id="iconfont-kettenbruecke" horiz-adv-x="1024">
<font-face units-per-em="1024" ascent="960" descent="-64" />
<missing-glyph horiz-adv-x="1024" />
<glyph unicode="&#x20;" horiz-adv-x="512" d="" />
<glyph unicode="&#xe900;" glyph-name="arrow-left" d="M272.995 317.989c62.88-61.133 105.41-120.371 127.236-178.17l-56.168-21.21c-18.358 48.615-55.88 100.877-112.92 156.333-57.6 56-117.708 98.349-180.331 127.203l-50.812 23.412 47.602 29.395c91.631 56.583 154.228 102.488 187.088 136.756 32.406 33.795 66.521 88.378 101.694 163.493l54.373-25.46c-37.711-80.536-75.072-140.314-112.732-179.587-31.113-32.446-82.401-71.635-154.276-118.126 51.726-29.558 101.475-67.595 149.246-114.038zM1024 399.389h-679.031v63.659h679.031v-63.659z" />
<glyph unicode="&#xe901;" glyph-name="arrow-up" d="M393.085 675.909c-61.133-62.88-120.371-105.41-178.17-127.236l-21.21 56.168c48.615 18.358 100.877 55.88 156.333 112.92 56 57.6 98.349 117.708 127.203 180.331l23.412 50.812 29.395-47.602c56.583-91.631 102.488-154.228 136.756-187.088 33.795-32.406 88.378-66.521 163.493-101.694l-25.46-54.373c-80.536 37.711-140.314 75.072-179.587 112.732-32.446 31.113-71.635 82.401-118.126 154.276-29.558-51.726-67.595-101.475-114.038-149.246zM474.485-75.096v679.031h63.659v-679.031h-63.659z" />
<glyph unicode="&#xe902;" glyph-name="arrow-right" d="M751.005 555.819c-62.88 61.133-105.41 120.371-127.236 178.17l56.168 21.21c18.358-48.615 55.88-100.877 112.92-156.333 57.6-56 117.708-98.349 180.331-127.203l50.812-23.412-47.602-29.395c-91.631-56.583-154.228-102.488-187.088-136.756-32.406-33.795-66.521-88.378-101.694-163.493l-54.373 25.46c37.711 80.536 75.072 140.314 112.732 179.587 31.113 32.446 82.401 71.635 154.276 118.126-51.726 29.558-101.475 67.595-149.246 114.038zM0 474.419h679.031v-63.659h-679.031v63.659z" />
<glyph unicode="&#xe903;" glyph-name="arrow-down" d="M630.915 197.899c61.133 62.88 120.371 105.41 178.17 127.236l21.21-56.168c-48.615-18.358-100.877-55.88-156.333-112.92-56-57.6-98.349-117.708-127.203-180.331l-23.412-50.812-29.395 47.602c-56.583 91.631-102.488 154.228-136.756 187.088-33.795 32.406-88.378 66.521-163.493 101.694l25.46 54.373c80.536-37.711 140.314-75.072 179.587-112.732 32.446-31.113 71.635-82.401 118.126-154.276 29.558 51.726 67.595 101.475 114.038 149.246zM549.515 948.904v-679.031h-63.659v679.031h63.659z" />
<glyph unicode="&#xe904;" glyph-name="arrow-rightup" d="M596.917 689.992c-87.69-1.235-159.651 10.579-215.955 36.016l24.719 54.715c47.357-21.395 110.844-31.818 190.391-30.697 80.327 1.131 152.775 13.689 217.459 37.567l52.484 19.375-12.874-54.445c-24.783-104.803-36.586-181.525-35.59-228.992 0.982-46.812 15.456-109.53 43.699-187.516l-56.451-20.444c-30.282 83.614-46.133 152.301-47.274 206.701-0.943 44.943 7.613 108.919 25.562 192.617-57.477-15.675-119.551-23.957-186.17-24.896zM123.434 101.392l480.148 480.148 45.014-45.014-480.148-480.148-45.014 45.014z" />
<glyph unicode="&#xe905;" glyph-name="close" d="M1024 894.853l-54.921 54.809-458.785-448.55-448.524 458.888-54.857-54.873 451.91-455.463-458.823-448.559 54.857-54.848 455.437 448.495 445.215-458.768 54.921 54.848-445.254 458.832z" />
<glyph unicode="&#xe906;" glyph-name="email" d="M882.701 150.956l-285.175 240.682-60.722-57.688c-5.553-4.317-12.241-6.499-18.929-6.499-6.357 0-12.714 1.993-18.125 5.884l-59.71 52.677-257.502-235.056h700.147zM947.9 198.196v526.347l-292.52-277.935 292.52-248.412zM76.053 159.327l304.117 279.521-304.117 268.318v-547.839zM152.847 745.089l364.375-322.679 337.961 322.679h-702.329zM978.786 76.799h-933.572c-17.030 0-43.279 26.248-43.279 43.279v655.851c0 17.030 26.248 43.279 43.279 43.279h933.572c17.030 0 43.279-26.248 43.279-43.279v-655.803c0-17.030-26.248-43.326-43.279-43.326z" />
<glyph unicode="&#xe907;" glyph-name="phone" d="M82.736 793.14c11.41-200.476 103.924-361.329 274.68-523.418 162.375-154.132 307.837-222.698 524.577-224.972l53.532 217.121-169.571 30.299-136.187-130.744-53.035 31.244c-148.849 87.692-218.402 154.628-309.466 297.949l-35.634 56.089 137.103 131.596-33.66 170.047-252.34-55.221zM732.613 298.134c2.62-0.654 5.261-1.126 7.891-1.408l-7.891 1.408zM19.378 852.589c11.603 11.382 27.364 19.667 45.456 19.742l274.812 60.137c18.373 0.478 34.024-6.849 45.799-15.582 11.156-8.407 25.991-23.782 26.926-40.87l41.958-211.964c2.136-7.618-0.23-16.302-5.942-21.817l-112.581-108.057c84.14-132.433 144.324-190.338 282.152-271.539l113.285 108.756c5.442 5.199 13.646 7.367 20.974 5.536l204.531-36.361c18.153 0.141 33.771-8.057 45.456-19.053s20.461-25.632 20.974-43.295l-61.534-249.585c-0.409-18.034-9.014-33.349-20.632-44.682-10.955-10.453-28.117-18.003-45.799-20.431-274.888-0.468-440.687 102.103-593.679 247.329-152.792 145.035-291.545 330.986-300.676 596.028-0.318 14.977 7.103 30.297 18.53 45.718z" />
<glyph unicode="&#xe908;" glyph-name="fax" d="M324.693 771.84v-233.529h376.889v233.529h-376.889zM770.702 469.191h-515.129v371.769h515.129v-371.769zM829.013 410.88v191.147h65.287c63.513 0 115.335-51.823 115.335-115.335v-316.316c0-63.516-51.826-115.335-115.351-115.335h-762.309c-63.513 0-115.335 51.823-115.335 115.335v316.316c0 63.513 51.823 115.335 115.335 115.335h65.287v-191.147h631.751zM898.133 341.76h-769.991v190.987c-23.577-1.977-42.382-22.007-42.382-46.055v-316.316c0-25.339 20.877-46.215 46.215-46.215h762.309c25.353 0 46.231 20.875 46.231 46.215v316.316c0 24.049-18.805 44.078-42.382 46.055v-190.987z" />
<glyph unicode="&#xe909;" glyph-name="calendar" d="M144.728-65.6h734.53c69.724 0 126.242 56.518 126.242 126.242v665.675c0 69.724-56.518 126.242-126.242 126.242h-103.295v74.601c0 19.013-24.27 34.427-43.283 34.427s-46.371-15.414-46.371-34.427v-74.601h-348.619v74.601c0 19.013-27.357 34.427-46.371 34.427s-43.283-15.414-43.283-34.427v-74.601h-103.295c-69.724 0-126.242-56.518-126.242-126.242v-665.675c0-69.724 56.518-126.242 126.242-126.242zM879.27 24.067h-734.53c-31.698 0-36.588 16.834-36.588 48.531v402.162h807.705v-414.106c0-21.127-12.196-33.323-36.588-36.588zM153.584 762.905h94.439v-42.321c0-19.013 24.27-34.427 43.283-34.427s46.371 15.414 46.371 34.427v42.321h348.619v-42.321c0-19.013 27.357-34.427 46.371-34.427s43.283 15.414 43.283 34.427v42.321h103.295c31.698 0 36.588-4.89 36.588-36.588v-161.902h-807.705v153.046c0 31.698 13.746 45.444 45.444 45.444z" />
<glyph unicode="&#xe90a;" glyph-name="arrow2-down" d="M516.185 311.394l-392.382 371.873c-41.732 62.24-126.668 5.617-66.009-58.061l425.592-422.105c8.499-8.772 20.103-13.71 32.214-13.71s23.715 4.939 32.214 13.71l425.586 422.105c42.959 54.241-23.102 120.302-65.996 67.499l-391.22-381.311z" />
<glyph unicode="&#xe90b;" glyph-name="position" d="M275.047 784.4c-56.075-58.066-87.392-137.029-86.88-219.466 0-99.981 268.038-546.294 298.233-546.294 30.214 0 298.234 446.35 298.234 546.668 0.51 82.082-30.819 161.039-86.881 219.092-56.046 58.036-132.147 90.361-211.754 89.834-78.844 0.527-154.934-31.827-210.951-89.834zM225.327 832.415c69.086 71.539 163.279 111.591 260.672 110.937 98.146 0.654 192.353-39.362 261.474-110.937 68.665-71.102 106.902-167.469 106.281-267.322 0-133.312-289.583-615.573-367.354-615.573-77.748 0-367.354 482.224-367.353 615.199-0.622 100.203 37.599 196.577 106.279 267.696zM275.734 596.783c16.553 93.558 87.807 166.78 181.756 184.501 65.883 9.22 132.083-13.865 178.784-62.189 46.278-47.887 67.988-114.898 58.904-183.895-16.478-93.135-87.284-166.427-179.557-184.135-66.188-10.262-133.098 12.446-180.377 60.954-46.769 47.984-68.729 115.428-59.51 184.764zM503.805 419.156c62.635 12.036 111.779 62.905 123.076 126.559 6.129 46.728-8.768 92.709-40.309 125.346-31.409 32.5-75.605 47.912-117.871 42.037-63.875-12.076-113.319-62.885-124.674-126.876-6.225-46.98 8.844-93.259 40.716-125.959 31.762-32.587 76.324-47.711 119.063-41.107z" />
<glyph unicode="&#xe90c;" glyph-name="upload" d="M877.794 270.299h74.902v-275.788h-881.396v275.788h74.902v-208.585h731.588v208.585zM556.665 353.788c0.51-27.685-10.601-51.224-37.665-54.338-1.758-0.091-3.519-0.091-5.276 0-14.229-0.18-27.929 5.486-37.99 15.714s-6.456 24.155-6.279 38.62v409.224l-204.499-206.76c-12.937-14.85-23.697-30.417-42.672-25.782s-33.886 19.531-38.776 38.733c-4.89 19.205 1.035 30.402 15.414 43.816l276.525 272.464c9.922 10.242 23.471 16.005 37.609 16.005s27.686-5.767 37.609-16.005l276.533-272.464c15.34-15.36 19.964-29.468 11.693-49.673s-27.783-33.284-49.312-33.049c-14.248 0.203-18.634 15.431-28.431 25.955l-204.49 197.582v-400.042z" />
<glyph unicode="&#xe90d;" glyph-name="number" d="M119.106 193.513v431.297c-31.811-26.632-82.856-56.964-119.106-73.979v73.979c48.086 25.153 95.433 56.224 124.285 80.636h65.841v-511.934h-71.020zM275.333 193.513v67.321l133.902 131.683c28.112 27.372 56.224 56.964 79.157 88.035 29.592 40.688 37.729 63.622 37.729 90.994 0 25.153-8.877 83.596-82.117 83.596-82.117 0-83.596-70.28-83.596-89.515h-77.678c0.74 25.153 2.959 73.979 47.347 112.448 35.51 30.331 78.418 36.989 110.968 36.989 78.418 0 158.315-39.949 158.315-149.437 0-32.551-2.219-57.704-57.704-127.984-14.796-18.495-79.897-85.816-94.693-100.611l-89.515-85.076h243.391v-58.443h-325.507zM675.559 325.196h78.418c-0.74-48.826 31.071-83.596 93.953-83.596 71.76 0 102.091 45.867 102.091 90.994 0 54.005-36.25 82.117-73.979 90.254-26.632 5.179-45.127 4.439-71.020 3.699v59.923c51.045-4.439 136.861 5.918 136.861 88.775 0 57.704-39.209 80.636-90.254 80.636-38.469 0-86.555-17.015-93.213-80.636h-74.719c4.439 127.244 124.285 139.82 165.713 139.82 111.708 0 167.192-67.321 167.192-138.341 0-42.168-22.933-102.831-102.091-120.586 109.489-15.536 109.489-113.928 109.489-124.285 0-71.76-58.443-150.917-177.549-150.917-54.005 0-108.009 15.536-140.56 53.265-28.852 32.551-29.592 69.54-30.331 90.994z" />
<glyph unicode="&#xe90e;" glyph-name="magnifier" d="M701.137 290.846l298.9-298.9-33.941-33.941-299.018 299.018c-68.405-60.189-157.658-97.024-254.278-97.024-214.4 0-390.4 176-390.4 387.2 0 214.4 172.8 387.2 387.2 387.2 214.4 3.2 390.4-172.8 390.4-387.2 0-97.6-37.586-187.683-98.863-256.354zM412.8 886.4c-188.8 0-339.2-150.4-339.2-339.2 0-185.6 153.6-339.2 339.2-339.2s339.2 153.6 339.2 339.2c0 185.6-153.6 339.2-339.2 339.2z" />
<glyph unicode="&#xe90f;" glyph-name="play" horiz-adv-x="896" d="M0 960v-1024l877.89 512-877.89 512zM45.982 874.36l742.4-426.36-742.4-435.2v861.56z" />
<glyph unicode="&#xe910;" glyph-name="facebook" d="M1024 960v-1024h-1024v1024h1024zM548.518 90.49v326.559h109.611l16.412 127.268h-126.023v81.253c0 36.847 10.231 61.955 63.066 61.955l67.39 0.030v113.83c-11.651 1.551-51.654 5.016-98.199 5.016-97.163 0-163.683-59.309-163.683-168.227v-93.856h-109.892v-127.268h109.892v-326.561l131.425 0.003z" />
<glyph unicode="&#xe911;" glyph-name="youtube" d="M1024 960v-1024h-1024v1024h1024zM859.327 406.060c-0.935 13.037-3.714 24.802-8.364 35.294-4.675 10.466-11.195 19.893-19.585 28.256-8.364 7.947-17.792 14.102-28.286 18.517-10.468 4.441-22.234 7.116-35.273 8.051-12.13 0.467-27.845 0.935-47.17 1.402s-40.52 0.805-63.585 1.039c-23.039 0.234-47.273 0.467-72.676 0.701-25.377 0.234-50.39 0.338-75.092 0.338-24.208 0-49.481-0.104-75.819-0.338-26.312-0.234-51.559-0.467-75.793-0.701s-46.338-0.571-66.365-1.039c-20.052-0.467-36.104-0.935-48.208-1.402-13.065-0.935-24.806-3.61-35.299-8.051-10.468-4.415-19.896-10.57-28.286-18.517-8.39-8.362-14.909-17.79-19.559-28.256-4.675-10.492-7.455-22.257-8.39-35.294-1.403-26.074-2.442-45.526-3.143-58.329s-1.065-25.737-1.065-38.774c0-13.505 0.364-30.048 1.065-49.603s1.74-42.383 3.143-68.458c0.935-13.037 3.714-24.802 8.39-35.268 4.649-10.492 11.169-19.919 19.559-28.308 8.39-7.895 17.818-14.076 28.286-18.517 10.494-4.415 22.234-7.090 35.299-8.025 12.104-0.467 28.156-0.935 48.208-1.376 20.026-0.467 42.13-0.831 66.365-1.065s49.481-0.467 75.793-0.701c26.338-0.234 51.611-0.338 75.819-0.338 24.702 0 49.715 0.104 75.092 0.338 25.403 0.234 49.637 0.467 72.676 0.701 23.065 0.234 44.26 0.597 63.585 1.065 19.325 0.441 35.039 0.909 47.17 1.376 13.039 0.935 24.806 3.61 35.273 8.025 10.494 4.441 19.922 10.622 28.286 18.517 8.39 8.388 14.909 17.816 19.585 28.308 4.649 10.466 7.429 22.231 8.364 35.268 0.935 21.425 1.766 42.020 2.468 61.835 0.701 19.789 1.039 38.514 1.039 56.226 0 17.244-0.338 32.359-1.039 45.422-0.701 13.011-1.533 30.255-2.468 51.681zM818.132 276.131v-22.36h-89.456v-44.721c0-6.051 2.234-11.271 6.649-15.712 4.416-4.415 9.662-6.622 15.715-6.622s11.299 2.207 15.715 6.622c4.416 4.441 6.649 9.661 6.649 15.712v22.36h44.728v-22.36c0-18.621-6.546-34.437-19.585-47.5-13.039-13.037-28.884-19.556-47.507-19.556s-34.468 6.519-47.507 19.556c-13.039 13.063-19.559 28.879-19.559 47.5v89.442c0 18.621 6.52 34.463 19.559 47.5s28.884 19.556 47.507 19.556c18.624 0 34.468-6.519 47.507-19.556s19.585-28.879 19.585-47.5v-22.36zM751.040 320.826c-6.052 0-11.299-2.207-15.715-6.622-4.416-4.441-6.649-9.661-6.649-15.712v-22.36h44.728v22.36c0 6.051-2.234 11.271-6.649 15.712-4.416 4.415-9.662 6.622-15.715 6.622zM683.974 767.93v-176.052c-9.792-7.921-19.689-11.894-29.715-11.894-10 0-15.013 14.673-15.013 44.020v143.927h-44.702v-152.991c0.468-18.647 5.351-38.306 14.676-59.030 9.299-20.724 34.208-17.582 74.754 9.427v-20.958h44.702v223.552h-44.702zM639.246 187.417c0-23.295-9.662-37.605-28.987-42.981-19.325-5.35-39.481 1.065-60.442 19.218v-21.659h-44.702v268.247h44.702v-72.639c22.364 22.36 42.858 30.723 61.481 25.139s27.948-19.556 27.948-41.916v-133.409zM549.816 298.492v-117.36c7.455-7.479 16.779-11.193 27.948-11.193 11.195 0 16.779 5.584 16.779 16.777v104.79c0 11.167-4.675 17.919-13.974 20.231-9.325 2.337-19.559-2.078-30.754-13.245zM482.75 767.93c-18.624 0-34.468-6.545-47.507-19.582s-19.559-28.853-19.559-47.5v-89.416c0-18.621 6.52-34.463 19.559-47.5s28.884-19.556 47.507-19.556c18.624 0 34.468 6.519 47.507 19.556s19.559 28.879 19.559 47.5v89.416c0 18.647-6.52 34.463-19.559 47.5s-28.884 19.582-47.507 19.582zM482.75 723.209c6.052 0 11.299-2.207 15.715-6.648 4.416-4.415 6.649-9.661 6.649-15.712v-89.416c0-6.051-2.234-11.297-6.649-15.712s-9.662-6.622-15.715-6.622c-6.052 0-11.299 2.207-15.715 6.622s-6.649 9.661-6.649 15.712v89.416c0 6.051 2.234 11.297 6.649 15.712 4.416 4.441 9.662 6.648 15.715 6.648zM460.386 141.995h-44.702v20.958c-42.39-23.737-67.793-28.411-76.157-13.972-8.39 14.439-12.805 30.983-13.273 49.603v122.242h44.702v-122.943c0-13.505 5.013-20.257 15.013-20.257 10.026 0 19.922 3.973 29.715 11.868v131.332h44.702v-178.831zM413.58 812.625h-61.481l-48.208-95.7-48.208 95.7h-61.481l86.625-151.588h0.701v-116.658h44.728v116.658h0.675l86.651 151.588zM281.527 141.995h-44.702v223.552h-44.728v44.695h134.158v-44.695h-44.728v-223.552z" />
<glyph unicode="&#xe912;" glyph-name="twitter" d="M1024 960v-1024h-1024v1024h1024zM891.43 656.878c-27.635-12.337-57.348-20.674-88.526-24.433 31.824 19.205 56.255 49.6 67.763 85.809-29.781-17.78-62.76-30.68-97.891-37.629-28.108 30.139-68.178 48.975-112.514 48.975-85.143 0-154.149-69.441-154.149-155.1 0-12.162 1.349-24.001 3.992-35.347-128.124 6.459-241.714 68.229-317.745 162.057-13.269-22.899-20.872-49.537-20.872-77.967 0-53.82 27.203-101.283 68.579-129.112-25.265 0.793-49.039 7.776-69.829 19.4-0.020-0.653-0.020-1.297-0.020-1.944 0-75.161 53.14-137.839 123.657-152.097-12.924-3.542-26.543-5.423-40.6-5.423-9.945 0-19.586 0.945-29.013 2.769 19.631-61.619 76.547-106.468 144.019-107.725-52.804-41.606-119.261-66.389-191.491-66.389-12.435 0-24.713 0.739-36.781 2.162 68.246-44.011 149.269-69.684 236.333-69.684 283.54 0 438.574 236.345 438.574 441.323 0 6.722-0.148 13.399-0.435 20.047 30.105 21.885 56.241 49.196 76.919 80.306l0.028 0.003z" />
<glyph unicode="&#xe913;" glyph-name="instagram" d="M1024 960v-1024h-1024v1024h1024zM514.544 763.225c-93.622 0-105.361-0.394-142.128-2.075-36.694-1.676-61.753-7.502-83.677-16.023-22.67-8.809-41.895-20.597-61.059-39.761s-30.952-38.391-39.76-61.059c-8.525-21.928-14.352-46.987-16.024-83.679-1.679-36.768-2.075-48.505-2.075-142.127 0-93.625 0.396-105.362 2.075-142.13 1.673-36.692 7.499-61.751 16.024-83.679 8.808-22.668 20.595-41.895 39.76-61.059s38.389-30.952 61.059-39.761c21.925-8.521 46.984-14.347 83.677-16.023 36.768-1.677 48.507-2.075 142.128-2.075s105.362 0.397 142.13 2.075c36.692 1.676 61.751 7.502 83.677 16.023 22.67 8.809 41.893 20.597 61.057 39.761s30.952 38.391 39.761 61.059c8.524 21.928 14.35 46.987 16.024 83.679 1.679 36.768 2.073 48.505 2.073 142.13 0 93.622-0.394 105.359-2.073 142.127-1.674 36.692-7.501 61.751-16.024 83.679-8.809 22.668-20.597 41.895-39.761 61.059s-38.388 30.952-61.057 39.761c-21.926 8.521-46.985 14.347-83.677 16.023-36.768 1.68-48.508 2.075-142.13 2.075zM514.544 701.113c92.046 0 102.946-0.351 139.298-2.008 33.61-1.534 51.863-7.152 64.010-11.871 16.092-6.254 27.576-13.725 39.637-25.787 12.066-12.064 19.536-23.546 25.787-39.637 4.719-12.147 10.337-30.402 11.871-64.010 1.658-36.352 2.010-47.253 2.010-139.298 0-92.049-0.352-102.949-2.010-139.298-1.534-33.611-7.152-51.866-11.871-64.013-6.251-16.089-13.722-27.573-25.787-39.637-12.061-12.063-23.545-19.533-39.637-25.786-12.147-4.72-30.4-10.338-64.010-11.869-36.346-1.661-47.245-2.010-139.298-2.010s-102.952 0.349-139.298 2.010c-33.608 1.531-51.863 7.149-64.010 11.869-16.091 6.253-27.575 13.723-39.637 25.786-12.061 12.064-19.531 23.548-25.786 39.637-4.72 12.147-10.337 30.402-11.872 64.013-1.656 36.349-2.008 47.25-2.008 139.298 0 92.046 0.352 102.946 2.008 139.298 1.535 33.608 7.152 51.863 11.872 64.010 6.254 16.091 13.725 27.573 25.786 39.637 12.063 12.063 23.546 19.533 39.637 25.787 12.147 4.719 30.402 10.337 64.010 11.871 36.352 1.658 47.253 2.008 139.298 2.008zM514.544 595.521c-97.765 0-177.019-79.256-177.019-177.019 0-97.768 79.255-177.021 177.019-177.021s177.019 79.253 177.019 177.021c0 97.763-79.255 177.019-177.019 177.019zM739.927 602.516c0 22.847-18.521 41.367-41.367 41.367s-41.367-18.521-41.367-41.367c0-22.845 18.522-41.367 41.367-41.367 22.847 0 41.367 18.522 41.367 41.367zM514.544 303.593c-63.461 0-114.909 51.446-114.909 114.909 0 63.461 51.447 114.907 114.909 114.907s114.909-51.446 114.909-114.907c0-63.463-51.446-114.909-114.909-114.909z" />
<glyph unicode="&#xe914;" glyph-name="tripadvisor" d="M1024 960v-1024h-1024v1024h1024zM610.19 695.918c-32.956 4.618-82.495 11.18-144.495 6.438-25.423-1.669-50.582-5.086-75.608-9.926-25.847-4.998-51.182-11.842-76.014-20.602-34.422-12.169-67.183-27.799-97.931-47.526-1.625-1.042-3.744-1.828-5.652-1.828-43.764-0.088-87.52-0.071-131.284-0.053-0.715 0-1.439 0.132-2.172 0.23 0-0.583 0-1.183 0-1.748 3.656-5.025 7.612-9.873 10.915-15.109 13.007-20.593 24.116-42.095 30.563-65.735 0.53-1.907 0.141-4.733-0.971-6.332-15.807-22.518-27.322-47.005-33.927-73.674-2.269-9.175-11.409-46.988-3.912-86.187 6.561-42.016 24.002-78.963 52.065-110.789 28.708-32.541 64.243-54.6 106.055-66.088 29.503-8.133 59.598-9.864 89.966-5.051 54.617 8.627 99.441 34.422 135.064 76.499 0.283 0.327 0.574 0.671 0.918 0.954 0.203 0.194 0.503 0.256 1.545 0.804 15.083-22.527 30.201-45.142 45.84-68.508 15.692 23.428 31.022 46.263 46.599 69.479 4.142-4.663 7.806-8.981 11.683-13.113 29.45-31.49 65.196-52.268 106.903-63.095 17.114-4.433 34.554-6.791 52.065-6.685 41.707 0.23 80.738 10.897 116.069 33.3 49.425 31.322 81.957 75.572 95.909 132.326 15.913 64.711 3.762 124.741-34.316 179.42-1.872 2.711-1.713 5.033-0.91 7.789 7.312 25.732 19.71 49.001 34.227 71.263 2.005 3.064 4.027 6.084 6.022 9.166 0.141 0.185 0.018 0.539 0.018 1.378-3.435 0.194-6.861 0.556-10.305 0.556-42.731 0.035-85.489-0.026-128.273 0.15-2.985 0-6.367 0.998-8.901 2.57-36.417 22.774-75.14 40.329-116.175 52.966-23.498 7.223-47.288 13.325-71.581 16.76zM555.325 406.884c0.865 94.576 75.131 171.049 170.007 173.035 96.103 1.943 177.327-73.329 177.398-173.459 0.071-97.163-77.55-173.468-173.671-173.813-95.759-0.371-173.733 78.133-173.733 174.236zM294.726 580.564c96.563 0 174.042-77.497 173.901-174.245-0.177-94.169-76.72-171.923-171.949-172.744-97.401-0.839-173.786 77.736-175.305 170.404-1.634 99.379 79.873 177.398 173.353 176.585zM303.344 625.9c70.627 29.627 144.583 40.833 220.624 39.34 66.892-1.289 131.894-12.928 193.522-40.329-51.942-3.912-97.702-22.412-136.15-57.664-38.378-35.225-60.684-79.175-69.258-130.737-8.327 52.18-31.243 96.554-70.353 132.123-39.19 35.64-85.586 54.043-138.384 57.266zM728.705 516.524c-57.531 1.007-107.804-46.511-107.857-107.495-0.018-60.304 49.902-110.003 112.29-107.61 55.862 2.119 103.212 48.233 103.212 107.875 0 59.412-48.171 107.336-107.645 107.23zM798.855 409.029c0.018-38.696-31.728-70.477-70.38-70.327-38.572 0.106-70.442 32.126-70.3 70.609 0.168 38.652 31.87 69.991 70.813 69.991 38.493 0 69.841-31.499 69.868-70.274zM292.43 516.524c-57.231 1.024-107.848-45.963-107.972-107.38-0.115-60.622 50.423-110.55 113.058-107.68 54.882 2.499 102.276 47.588 102.453 107.724 0.141 59.395-48.1 107.398-107.539 107.336zM362.5 409.268c0.097-38.669-31.728-70.689-70.186-70.601-38.687 0.106-70.477 31.817-70.574 70.38-0.079 38.122 31.737 70.177 69.726 70.247 39.376 0.071 70.91-31.022 71.033-70.027zM728.758 444.714c-20.116-0.018-35.702-15.718-35.737-35.994-0.044-19.542 15.992-35.314 35.958-35.314 19.383 0.009 35.278 15.922 35.464 35.561 0.185 19.595-15.975 35.764-35.684 35.746zM292.244 445.032c-20.302-0.026-35.993-15.648-35.993-35.764-0.018-20.505 15.71-36.258 36.099-36.214 19.913 0.053 36.144 16.292 36.064 36.064-0.079 19.948-16.16 35.932-36.17 35.914z" />
<glyph unicode="&#xe915;" glyph-name="whatsapp" d="M1024 960v-1024h-1024v1024h1024zM921.6 471.009c0 213.493-174.392 386.539-389.567 386.591-215.201 0-389.567-173.072-389.593-386.565 0-72.976 20.418-141.346 55.871-199.571l-70.31-207.464 215.693 68.499c55.845-30.588 119.996-48.055 188.288-48.055 215.201 0 389.619 173.072 389.619 386.565zM535.217 794.947c178.515 0 323.782-145.227 323.731-323.679 0-178.53-145.242-323.731-323.731-323.731-65.728 0-126.93 19.693-178.080 53.513l-124.347-39.825 40.409 120.197c-38.746 53.358-61.662 118.934-61.662 189.769 0 178.53 145.19 323.757 323.68 323.757zM753.015 386.223c-2.618 3.866-9.468 6.222-19.716 10.933-10.22 4.711-60.818 27.37-70.202 30.442-9.468 3.149-16.318 4.737-23.169-4.66-6.767-9.396-26.482-30.493-32.525-36.792-5.987-6.273-11.974-7.066-22.25-2.432-10.276 4.762-43.413 14.594-82.678 46.521-30.548 24.886-51.183 55.533-57.142 64.93-6.043 9.371-0.613 14.44 4.483 19.1 4.595 4.225 10.276 10.958 15.427 16.463 5.152 5.453 6.85 9.32 10.276 15.592 3.369 6.273 1.671 11.726-0.863 16.463-2.562 4.711-23.085 50.797-31.69 69.564-8.549 18.742-17.098 15.644-23.113 15.644-5.987 0-12.837 0.768-19.688 0.768s-17.989-2.279-27.374-11.675c-9.384-9.396-35.95-32.055-35.95-78.192 0-46.188 36.786-90.712 41.938-96.959 5.18-6.222 71.121-104 175.575-141.535 104.51-37.509 104.51-24.989 123.334-23.401 18.88 1.587 60.818 22.659 69.339 44.524 8.577 21.968 8.577 40.786 5.987 44.703z" />
<glyph unicode="&#xe916;" glyph-name="world" d="M521.943 156.915c4.798-4.078 8.797-8.156 12.796-13.865 18.394-29.362 22.393-70.142-12.796-87.27-14.395-7.34-32.79-7.34-47.985-3.262-28.791 8.156-42.386 34.255-31.19 62.802 13.596 31.809 50.384 61.986 79.175 41.596zM772.035 429.037c20.085 0 39.333-4.93 54.397-18.077 11.716-10.682 18.411-27.115 12.553-42.727-9.206-23.007-34.312-41.905-51.049-59.16-14.227-14.79-28.454-28.758-44.354-41.905-11.716-10.682-25.943-24.65-41.844-27.115-22.596-4.108-43.518 12.325-61.929 23.007-21.759 12.325-44.354 23.828-66.95 36.153-15.901 8.217-27.617 23.007-23.433 41.084 2.511 9.86 9.206 17.255 17.574 23.007 13.39 8.217 31.801 8.217 46.865 13.968 14.227 6.573 27.617 15.612 41.844 23.007 27.617 13.968 60.255 21.363 90.383 26.293 8.369 1.643 16.738 2.465 25.943 2.465zM1024 459.104c0-3.29 0-7.402 0-9.87 0-4.112 0-9.047 0-13.16 0 0 0-0.822 0-1.645-0.822-4.112-0.822-7.402-0.822-11.515 0-0.822 0-0.822 0-0.822-6.575-126.663-59.172-245.102-149.573-335.576s-208.745-143.113-335.307-149.693c-0.822 0-0.822 0-0.822 0-4.109-0.822-7.396-0.822-11.506-0.822 0 0-0.822 0-1.644 0-4.931 0-9.040 0-13.149 0-74.787 0-147.108 16.45-213.676 46.882-0.822 0-1.644 0.822-2.465 0.822-1.644 0.822-3.287 1.645-4.931 2.467-3.287 1.645-5.753 2.467-8.218 4.112 0 0.822-0.822 0.822-0.822 0.822-110.125 55.929-195.596 148.871-242.44 260.729 0 1.645-0.822 3.29-1.644 4.935 0 1.645-0.822 3.29-1.644 4.935s-1.644 4.112-2.465 6.58c0 0.822-0.822 1.645-0.822 2.467-1.644 2.467-2.465 5.757-3.287 8.225-12.327 33.722-19.724 68.267-24.655 103.634v2.467c-0.822 1.645-0.822 3.29-0.822 4.935-0.822 1.645-0.822 3.29-0.822 4.935 0 2.467 0 4.112-0.822 7.402-0.822 1.645-0.822 3.29-0.822 4.935-0.822 1.645-0.822 4.112-0.822 5.757 0 2.467 0 4.112 0 6.58 0 1.645 0 3.29 0 4.935 0 2.467 0 4.935 0 7.402 0 1.645 0 2.467 0 4.112 0 4.112 0 8.225 0 12.337 0 16.45 0.822 30.432 1.644 46.059 10.684 119.261 61.637 230.297 147.929 316.659 89.579 88.829 205.457 141.468 329.554 148.048 0 0 0.822 0 0.822 0 3.287 0.822 5.753 0.822 9.040 0.822 1.644 0 3.287 0 4.931 0s4.109 0 5.753 0 7.396 0 11.506 0c4.931 0 9.862 0 14.793 0 1.644 0 2.465 0 4.109 0 4.109-0.822 7.396-0.822 11.506-0.822 0.822 0 1.644 0 3.287 0 4.109 0 9.040-0.822 13.149-0.822 0.822 0 0.822 0 1.644 0 119.165-10.692 229.291-62.509 314.761-147.226 86.292-86.361 137.246-197.398 147.929-317.481 0-0.822 0-0.822 0-1.645 0.822-3.29 0.822-5.757 0.822-8.225 0-0.822 0-1.645 0-2.467 0.822-4.112 0.822-7.402 0.822-11.515 0-1.645 0-4.112 0-6.58 0-1.645 0-2.467 0-4.112zM512 3.444c244.905 0 444.61 199.865 445.432 444.145 0 32.9-4.109 64.977-10.684 96.231 0.822-4.935-90.401-18.917-98.62-19.74-16.437-1.645-34.517-3.29-51.775 0-27.942 5.757-37.804 24.675-50.953 46.882-10.684 18.917-23.833 32.077-46.844 27.965-42.735-7.402-47.666-119.261-110.125-83.071-21.368 12.337-32.873 39.48-43.557 60.042-7.396 14.805-15.615 29.61-24.655 43.592-13.149 19.74-13.971 42.769-2.465 64.154 24.655 46.059 84.648 60.864 106.016 109.391 15.615 36.19-15.615 56.752-17.258 90.474-30.408 6.58-61.637 9.87-94.51 9.87-220.25 0-402.697-161.208-437.213-372.588 19.724 0 41.091-1.645 60.815-6.58 25.477-6.58 46.844-23.030 69.856-34.545 27.12-13.982 56.706-4.935 85.47-2.467 32.051 3.29 64.925 4.112 97.798 2.467 9.040 0 18.080-0.822 27.12-2.467 4.109-0.822 8.218-1.645 12.327-2.467 31.23-8.225 70.677-22.207 92.045-48.527 18.902-23.852 22.189-55.929 13.971-83.894-9.040-31.255-27.12-60.864-46.844-86.361-18.080-23.030-41.913-43.592-57.528-69.089-22.189-36.19-26.299-77.314-2.465-113.504 10.684-15.627 25.477-29.61 40.27-41.947 5.753-4.935 12.327-9.87 18.902-14.805 3.287-2.467 7.396-4.935 10.684-7.402 1.644-0.822 6.575-5.757 9.040-5.757 1.644 0 4.109 0 5.753 0z" />
<glyph unicode="&#xe917;" glyph-name="arrow-slim" horiz-adv-x="1615" d="M50.564 406.817l1406.667 1.799-399.309-396.654c-9.78-9.105-23.936-13.178-24.123-26.423-0.219-20.009 11.935-38.144 30.716-45.831s31.893-3.387 46.169 10.869l458.028 461.813c9.518 9.222 14.877 21.815 14.877 34.956s-5.359 25.734-14.877 34.956l-458.028 461.805c-12.466 13.362-22.875 18.871-40.724 14.326s-31.693-18.405-36-36.040c-4.307-17.634 10.16-27.634 23.961-39.659l396.965-394.86h-1404.324c-13.445 0.165-50.564-0.489-50.501-46.049-0.062-33.209 24.769-35.482 50.501-35.008z" />
<glyph unicode="&#xe918;" glyph-name="arrow-slim-left" horiz-adv-x="1587" d="M1533.052 489.116h-1395.814l388.438 394.862c9.78 9.105 23.936 13.179 24.123 26.423 0.219 20.009-11.935 38.145-30.717 45.832s-31.894 3.387-46.169-10.869l-458.036-461.821c-9.518-9.222-14.877-21.815-14.877-34.957s5.359-25.734 14.877-34.957l458.036-461.813c12.466-13.363 22.875-18.872 40.724-14.326s31.694 18.406 36.001 36.040c4.307 17.635-10.16 27.634-23.962 39.66l-396.972 394.867h1404.348c13.445-0.165 26.389-3.517 35.896 5.835s14.774 22.085 14.606 35.31c0.083 1.634 0.083 3.271 0 4.904-2.894 25.156-24.769 35.482-50.502 35.009z" />
<glyph unicode="&#xe919;" glyph-name="coupon" d="M685.184 422.4l105.408-105.408c12.48-12.48 12.48-32.768 0-45.248-6.208-6.208-14.4-9.344-22.592-9.344s-16.384 3.136-22.656 9.344l-105.344 105.344v-210.688h320v256h-274.816zM530.752 422.4h-466.752v-256h512v210.752l-105.408-105.408c-6.208-6.208-14.4-9.344-22.592-9.344s-16.384 3.136-22.656 9.344c-12.48 12.48-12.48 32.768 0 45.248l105.408 105.408zM815.411 486.4h144.589v256h-320v-199.092c35.827 42.994 77.639 92.503 92.032 106.932 36.224 36.352 99.648 36.288 135.872 0 18.112-18.048 28.096-42.176 28.096-67.84s-9.984-49.728-28.096-67.904c-8.272-8.312-27.473-18.005-52.493-28.096zM400.776 486.4c-25.099 10.114-44.371 19.831-52.68 28.16-18.112 18.112-28.096 42.304-28.096 67.904s10.048 49.728 28.16 67.84c36.096 36.224 99.456 36.288 135.68 0 14.404-14.367 56.286-63.968 92.16-107.023v199.119h-512v-256h336.776zM960 102.4h-896c-35.264 0-64 28.672-64 64v576c0 35.264 28.736 64 64 64h896c35.328 0 64-28.736 64-64v-576c0-35.328-28.672-64-64-64zM960 166.4v0zM416 614.4c-8.512 0-16.576-3.328-22.592-9.344-6.080-6.080-9.408-14.080-9.408-22.656s3.328-16.576 9.408-22.656c10.752-8.384 62.592-26.752 123.584-45.568-33.472 40-67.328 79.808-78.336 90.816 0 0 0 0-0.064 0.064-6.016 6.016-14.080 9.344-22.592 9.344zM800 614.4c-8.576 0-16.576-3.328-22.592-9.344-0.064 0-0.064 0-0.064-0.064-11.072-11.008-44.8-50.752-78.272-90.752 60.992 18.88 113.024 37.376 124.16 46.208 5.44 5.376 8.768 13.44 8.768 21.952s-3.328 16.512-9.344 22.592c-6.080 6.080-14.080 9.408-22.656 9.408z" />
</font>
</defs>
</svg>
